Gyermekeknek való rajzfilmek, filmek, sorozatok

papadi

Állandó Tag
Állandó Tag
f52e70a59f43e73e667248fff5678e18.jpg


DVD3

17 - Tolvaj szarka
18 - Szellemlátogatás
19 - Zeneiskolások
20 - Hogyan szelídítsünk oroszlánt?
21 - Hegyi mentés
22 - A papírsárkány
23 - Mogyorót télire
24 - Medve a barlangban

Extra (ajánló):
Animália
Horseland a lovasklub

Média információ:

Video:
Kodek: MPEG-1/2 Video (mpgv)
Felbontás: 720x576
Képkockasebesség: 25
Képformátum: 1.33:1 (4:3)

Hang:
Kodek: A52 Audio (aka AC3) (a52)
Csatornák: Sztereó
Mintavételi frekvencia: 48000 Hz
Bitek mintánként: 32

Formátum: iso
Méret: 3,65 GB
Műsoridő: 1:06:22+1:03

(prémium)
Kód:
https://data.hu/get/13007766/D2943i.part1.rar
https://data.hu/get/13007770/D2943i.part2.rar
https://data.hu/get/13007768/D2943i.part3.rar
https://data.hu/get/13007773/D2943i.part4.rar

f1ef435c6b7f23fa788d214552fff9b1.jpg


Formátum: dvdrip/avi
Méret: 956 MB
Felbontás: 720x544
Mintavételi frekvencia: 48000 Hz
Bitsebesség: 104-110 kbps
Műsoridő: 1:06:22

Részletes média információ:
J:\2943 - Varázsceruza 3\17 - Tolvaj szarka.avi
General
Complete name : J:\2943 - Varázsceruza 3\17 - Tolvaj szarka.avi
Format : AVI
Format/Info : Audio Video Interleave
File size : 118 MiB
Duration : 7 min
Overall bit rate mode : Variable
Overall bit rate : 2 203 kb/s
Writing application : VirtualDubMod 1.5.4.1 (build 2178/release)
Writing library : VirtualDubMod build 2178/release
Video #0
ID : 0
Format : MPEG-4 Visual
Format profile : Advanced Simple@L5
Format settings, BVOP : 1
Format settings, QPel : No
Format settings, GMC : No warppoints
Format settings, Matrix : Custom
Codec ID : XVID
Codec ID/Hint : XviD
Duration : 7 min
Bit rate : 2 086 kb/s
Width : 720 pixels
Height : 544 pixels
Display aspect ratio : 4:3
Frame rate : 25.000 FPS
Color space : YUV
Chroma subsampling : 4:2:0
Bit depth : 8 bits
Scan type : Progressive
Compression mode : Lossy
Bits/(Pixel*Frame) : 0.213
Stream size : 111 MiB (95%)
Writing library : XviD 1.2.1 (UTC 2008-12-04)
Audio #1
ID : 1
Format : MPEG Audio
Format version : Version 1
Format profile : Layer 3
Mode : Joint stereo
Mode extension : MS Stereo
Codec ID : 55
Codec ID/Hint : MP3
Duration : 7 min
Bit rate mode : Variable
Bit rate : 104 kb/s
Nominal bit rate : 128 kb/s
Channel(s) : 2 channels
Sampling rate : 48.0 kHz
Compression mode : Lossy
Stream size : 5.57 MiB (5%)
Alignment : Aligned on interleaves
Interleave, duration : 24 ms (0.60 video frame)
Interleave, preload duration : 593 ms
Writing library : LAME3.98r
Encoding settings : -m j -V 4 -q 2 -lowpass 17 --abr 128

prémium
Kód:
https://data.hu/get/11016893/D2943.rar
vagy free
Kód:
https://data.hu/get/11016895/D2943v.part01.rar
https://data.hu/get/11016888/D2943v.part02.rar
https://data.hu/get/11016889/D2943v.part03.rar
https://data.hu/get/11016886/D2943v.part04.rar
https://data.hu/get/11016885/D2943v.part05.rar
https://data.hu/get/11016891/D2943v.part06.rar
https://data.hu/get/11016887/D2943v.part07.rar
https://data.hu/get/11016884/D2943v.part08.rar
https://data.hu/get/11016890/D2943v.part09.rar
https://data.hu/get/11016894/D2943v.part10.rar
 

papadi

Állandó Tag
Állandó Tag
ec1192782ac6595bf4d5d2778d4b1f9c.jpg


DVD4

25 - Rejtélyes palack
26 - A hajótörés
27 - Úticél
28 - A jég fogságában
29 - Az öreg malom
30 - Teljes gőzzel előre
31 - Szafari
32 - Harc az őserdőben

Extra (ajánló):
Animália
Horseland a lovasklub

Média információ:

Video:
Kodek: MPEG-1/2 Video (mpgv)
Felbontás: 720x576
Képkockasebesség: 25
Képformátum: 1.33:1 (4:3)

Hang:
Kodek: A52 Audio (aka AC3) (a52)
Csatornák: Sztereó
Mintavételi frekvencia: 48000 Hz
Bitek mintánként: 32

Formátum: iso
Méret: 3,97 GB
Műsoridő: 1:12:58+1:03

(prémium)
Kód:
https://data.hu/get/13007772/D2944i.part1.rar
https://data.hu/get/13007777/D2944i.part2.rar
https://data.hu/get/13007776/D2944i.part3.rar
https://data.hu/get/13007775/D2944i.part4.rar

e6c49a4bbc2005b6430cb1c89a6bb305.jpg


Formátum: dvdrip/avi
Méret: 952 MB
Felbontás: 720x544
Mintavételi frekvencia: 48000 Hz
Bitsebesség: 101-105 kbps
Műsoridő: 1:12:58

Részletes média információ:
J:\2944 - Varázsceruza 4\25 - Rejtélyes palack.avi
General
Complete name : J:\2944 - Varázsceruza 4\25 - Rejtélyes palack.avi
Format : AVI
Format/Info : Audio Video Interleave
File size : 117 MiB
Duration : 8 min
Overall bit rate mode : Variable
Overall bit rate : 1 984 kb/s
Writing application : VirtualDubMod 1.5.4.1 (build 2178/release)
Writing library : VirtualDubMod build 2178/release
Video #0
ID : 0
Format : MPEG-4 Visual
Format profile : Advanced Simple@L5
Format settings, BVOP : 1
Format settings, QPel : No
Format settings, GMC : No warppoints
Format settings, Matrix : Custom
Codec ID : XVID
Codec ID/Hint : XviD
Duration : 8 min
Bit rate : 1 870 kb/s
Width : 720 pixels
Height : 544 pixels
Display aspect ratio : 4:3
Frame rate : 25.000 FPS
Color space : YUV
Chroma subsampling : 4:2:0
Bit depth : 8 bits
Scan type : Progressive
Compression mode : Lossy
Bits/(Pixel*Frame) : 0.191
Stream size : 111 MiB (94%)
Writing library : XviD 1.2.1 (UTC 2008-12-04)
Audio #1
ID : 1
Format : MPEG Audio
Format version : Version 1
Format profile : Layer 3
Mode : Joint stereo
Mode extension : MS Stereo
Codec ID : 55
Codec ID/Hint : MP3
Duration : 8 min
Bit rate mode : Variable
Bit rate : 101 kb/s
Nominal bit rate : 128 kb/s
Channel(s) : 2 channels
Sampling rate : 48.0 kHz
Compression mode : Lossy
Stream size : 5.98 MiB (5%)
Alignment : Aligned on interleaves
Interleave, duration : 24 ms (0.60 video frame)
Interleave, preload duration : 630 ms
Writing library : LAME3.98r
Encoding settings : -m j -V 4 -q 2 -lowpass 17 --abr 128

prémium
Kód:
https://data.hu/get/11017925/D2944.rar
vagy free
Kód:
https://data.hu/get/13007771/D2944av.part1.rar
https://data.hu/get/13007767/D2944av.part2.rar
https://data.hu/get/13007774/D2944av.part3.rar
https://data.hu/get/13007769/D2944av.part4.rar
https://data.hu/get/13007765/D2944av.part5.rar
 

papadi

Állandó Tag
Állandó Tag
95f8072da60f6c5f89206730ce1b237c.jpg


DVD5

33 - Kaland Indiában
34 - Váratlan vendég
35 - Matrózavatás
36 - A tengeri szörny
37 - Végállomás
38 - Korong a jégen
39 - Kis cowboy

Extra (ajánló):
Animália
Horseland a lovasklub

Média információ:

Video:
Kodek: MPEG-1/2 Video (mpgv)
Felbontás: 720x576
Képkockasebesség: 25
Képformátum: 1.33:1 (4:3)

Hang:
Kodek: A52 Audio (aka AC3) (a52)
Csatornák: Sztereó
Mintavételi frekvencia: 48000 Hz
Bitek mintánként: 32

Formátum: iso
Méret: 3,80 GB
Műsoridő: 1:04:07+1:03

Megjegyzés: a DVD 38-39. része a sorozat 25-26. epizódja 1971-ből, de mert az ezt követő történetek összefüggenek, ezért rakták a végére.

(prémium)
Kód:
https://data.hu/get/13007786/D2992i.part1.rar
https://data.hu/get/13007782/D2992i.part2.rar
https://data.hu/get/13007781/D2992i.part3.rar
https://data.hu/get/13007783/D2992i.part4.rar

1d315f0be89ce46e53cff61d1705ff16.jpg


Formátum: dvdrip/avi
Méret: 1,02 GB
Felbontás: 720x544
Mintavételi frekvencia: 48000 Hz
Bitsebesség: 102-111 kbps
Műsoridő: 1:04:07

Részletes média információ:
J:\2992 - Varázsceruza 5\33 - Kaland Indiában.avi
General
Complete name : J:\2992 - Varázsceruza 5\33 - Kaland Indiában.avi
Format : AVI
Format/Info : Audio Video Interleave
File size : 148 MiB
Duration : 9 min
Overall bit rate mode : Variable
Overall bit rate : 2 272 kb/s
Writing application : VirtualDubMod 1.5.4.1 (build 2178/release)
Writing library : VirtualDubMod build 2178/release
Video #0
ID : 0
Format : MPEG-4 Visual
Format profile : Advanced Simple@L5
Format settings, BVOP : 1
Format settings, QPel : No
Format settings, GMC : No warppoints
Format settings, Matrix : Custom
Codec ID : XVID
Codec ID/Hint : XviD
Duration : 9 min
Bit rate : 2 157 kb/s
Width : 720 pixels
Height : 544 pixels
Display aspect ratio : 4:3
Frame rate : 25.000 FPS
Color space : YUV
Chroma subsampling : 4:2:0
Bit depth : 8 bits
Scan type : Progressive
Compression mode : Lossy
Bits/(Pixel*Frame) : 0.220
Stream size : 140 MiB (95%)
Writing library : XviD 1.2.1 (UTC 2008-12-04)
Audio #1
ID : 1
Format : MPEG Audio
Format version : Version 1
Format profile : Layer 3
Mode : Joint stereo
Codec ID : 55
Codec ID/Hint : MP3
Duration : 9 min
Bit rate mode : Variable
Bit rate : 102 kb/s
Nominal bit rate : 128 kb/s
Channel(s) : 2 channels
Sampling rate : 48.0 kHz
Compression mode : Lossy
Stream size : 6.65 MiB (5%)
Alignment : Aligned on interleaves
Interleave, duration : 24 ms (0.60 video frame)
Interleave, preload duration : 604 ms
Writing library : LAME3.98r
Encoding settings : -m j -V 4 -q 2 -lowpass 17 --abr 128

Megjegyzés: a DVD 38-39. része a sorozat 25-26. epizódja 1971-ből, de mert az ezt követő történetek összefüggenek, ezért rakták a végére.

prémium
Kód:
https://data.hu/get/13007780/D2992a.part1.rar
https://data.hu/get/13007779/D2992a.part2.rar
vagy free
Kód:
https://data.hu/get/13007778/D2992av.part1.rar
https://data.hu/get/13007789/D2992av.part2.rar
https://data.hu/get/13007788/D2992av.part3.rar
https://data.hu/get/13007787/D2992av.part4.rar
https://data.hu/get/13007785/D2992av.part5.rar
https://data.hu/get/13007784/D2992av.part6.rar
 
Oldal tetejére