Filmek VII -Itt nem kérünk!

FLAMINGO témája a 'Film, színház, tánc' fórumban , 2018 Január 20.

  1. balboka

    balboka Állandó Tag

    Drakulics elvtárs 2019 BDRip x264 Hun
    [​IMG]

    Év:
    2019
    Játékidő:
    95 perc
    imdb_icon értékelés:
    7.1
    Kategória:
    Vígjáték
    Rendező:
    Márk Bodzsár
    Író:
    Márk Bodzsár
    Szereplők:
    Éva Kerekes (Telekes titkárno), Ervin Nagy (Kun László), Judit Rezes (Réti Lajosné), Roland Rába (Kádár János), Szabolcs Thuróczy (Esvégh elvtárs), Zsolt Trill (Galambos elvtárs), István Znamenák (Cserkó Jeno), András Vinnai (Vellai bárpultos), Zsolt Nagy (Fábián elvtárs), Nelli Szücs (Cserkóné), Mónika Balsai (Nádja asszony), Tibor Bödõcs (Szikra konferanszié), Hanna Pálos (Polláck Ilona), Alexandra Borbély (Ibolya), Lili Walters (Magyar Mária)

    Leírás:
    ------20 PERCES ÍZELÍTŐ A FILMBŐL------A Kádár-korszak fénykorában hazatér a kubai forradalomban edződött Fábián elvtárs (Nagy Zsolt). Nagyszerű ötlettel áll elő, hozzálát a rendszerezett véradás megszervezéséhez. Valami azonban furcsa a viselkedésében, ráadásul feltűnően fiatalos megjelenése és a nők körében töretlen népszerűsége is gyanakvásra ad okot. Nem csoda hát, hogy a magyar kémelhárítás prominens tagjait állítják rá az elvtársra. Klasszikus módszerhez folyamodnak, Mária (Walters Lili) a női csáberő bevetésével próbál közel kerülni a kétes alakhoz. Színlelt kapcsolatuk kezd elmélyülni, a kémnő pedig egyre biztosabb abban, hogy végre sikerült átvennie az irányítást a férfiak fölött. Barátja, Laci (Nagy Ervin) azonban korántsem örül ennyire a nő románcának. Megunja a háttérből szimatolást, és elkezd a történteken morfondírozni, noha az ésszerűség nem tartozik az erősségei közé. Vajon fény derül a titokzatos elvtársat körbelengő rejtélyre? Elképzelhető, hogy a talány kulcsa a férfi üvegében levő piros nedű? A sokatlátott hírszerző osztagnak nehéz újat mutatni, ez a titokzatos eset azonban számukra is komoly fejtörést okoz. Ijedelemre azonban semmi ok, a kémelhárítás színe-java tartja szemmel a köztünk járó vérszívókat, fegyvertárukban klasszikus és modern eszközök egyaránt megtalálhatók. A bravúros vígjáték Bodzsár Márk írói és rendezői munkáját dícséri. Nagyszerű színészek, pörgős cselekmény, bohókás fordulatok teszik feledhetetlenné a produkciót...


    Média
    Időtartam 1:37:13
    Bitráta 2124 kbps
    Width 720
    Height 302
    Aspect Ratio 2.35
    Video Resolution SD
    Container MKV
    Video Frame Rate 24p
    Video Profile high
    Rész
    Időtartam 1:37:13
    File legacy-drakulicselvtars.mkv
    Size 1.44 GB
    Container MKV
    Video Profile high
    Codec H264
    Bitráta 1484 kbps
    Nyelv Magyar
    Bit Depth 8
    Chroma Location left
    Chroma Subsampling 4:2:0
    Coded Height 304
    Coded Width 720
    Color Primaries bt709
    Color Range tv
    Color Space bt709
    Color Trc bt709
    Frame Rate 24 fps
    Height 302
    Szint 4.1
    Profil high
    Ref Frames 16
    Scan Type progressive
    Cím Legacy pwns u!
    Width 720
    Display Title SD (H.264)
    Codec AC3
    Csatornák 6
    Bitráta 640 kbps
    Nyelv Magyar
    Audio Channel Layout 5.1(side)
    Sampling Rate 48000 Hz
    Cím Hungarian DD 5.1
    Display Title Magyar (AC3 5.1)
    Kényszerített true
    Codec SRT
    Nyelv Magyar
    Cím Hungarian Forced
    Display Title Magyar Kényszerített (SRT)
    Codec SRT
    Nyelv Magyar
    Cím Hungarian
    Display Title Magyar (SRT)
    Codec SRT
    Nyelv Magyar
    Cím Hungarian SDH
    Display Title Magyar (SRT)
    Codec SRT
    Nyelv English
    Cím English
    Display Title English (SRT)


    Kód:
    tölsd le itt, privát szerver jelszó:  123   csak a jelszót kell beirni és indul a letöltés 100mbit vagy több:)
    https://ouo.io/NsSwG3
    
     
    Utoljára módosítva a moderátor által: 2020 Április 30
  2. balboka

    balboka Állandó Tag

    Seveled 2019 BDRip x264 Hun
    [​IMG]

    Év:
    2019
    Játékidő:
    90 perc
    imdb_icon értékelés:
    6.7
    Kategória:
    Vígjáték, Romantikus
    Rendező:
    Dénes Orosz
    Írók:
    Dénes Orosz, Zsuzsi Várady
    Szereplők:
    Luca Bercovici (Frank Davenport), Gyula Bodrogi (Géza), Bori Boldoghy (Robika felesége), Juli Básti (Emma), György Cserhalmi (Károly), Judit Rezes (Hedvig), Eszter Ónodi (Anna Foszerkeszto), Anna Pálmai (Petra), Béla Mészáros (Gergo), Zsolt Dér (Zsolt), Hajnalka Szakács (Noémi, újonc), Máté Mészáros (Adonisz), Péter Telekes (Balázs), Réka Tenki (Saci), Áron Molnár (Robika)

    Leírás:
    Elsőre jó ötletnek látszott. Gergő (Mészáros Béla), a csajozógép filmkritikus szeretne beteg édesanyja (Básti Juli) kedvében járni, és a jó ügy érdekében hazudik egy nagyot. Csak egyetlen egyet: beviszi hozzá a kórházba a szomszédját (Tenki Réka), a nagyszájú ex-sztriptíztáncosnőt, akinek van egy nagy előnye: öt hónapos terhes. Az unokamániás anyuka boldogan látja, hogy a fia révbe ért, elbúcsúzik mindenkitől – és meggyógyul. Ettől kezdve Gergő és Saci kénytelen újabb és újabb hazugságokkal tartani a frontot. Bár alig bírják egymást elviselni, ha jön a „nagyi”, úgy tesznek, mintha boldog, fiatal pár volnának. Az átverések persze sosem tökéletesek, és a bonyodalom Saci pocakjával együtt terebélyesedik: pedig előbb-utóbb meg kell születnie a megoldásnak.



    Média
    Időtartam 1:35:38
    Bitráta 2088 kbps
    Width 720
    Height 270
    Aspect Ratio 2.35
    Video Resolution SD
    Container MKV
    Video Frame Rate 24p
    Video Profile high
    Rész
    Időtartam 1:35:38
    File legacy-seveled.mkv
    Size 1.40 GB
    Container MKV
    Video Profile high
    Codec H264
    Bitráta 1448 kbps
    Nyelv Magyar
    Bit Depth 8
    Chroma Location left
    Chroma Subsampling 4:2:0
    Coded Height 272
    Coded Width 720
    Color Primaries bt709
    Color Range tv
    Color Space bt709
    Color Trc bt709
    Frame Rate 24 fps
    Height 270
    Szint 4.1
    Profil high
    Ref Frames 16
    Scan Type progressive
    Cím Legacy pwns u!
    Width 720
    Display Title SD (H.264)
    Codec AC3
    Csatornák 6
    Bitráta 640 kbps
    Nyelv Magyar
    Audio Channel Layout 5.1(side)
    Sampling Rate 48000 Hz
    Cím Hungarian DD 5.1
    Display Title Magyar (AC3 5.1)
    Kényszerített true
    Codec SRT
    Nyelv Magyar
    Cím Hungarian Forced
    Display Title Magyar Kényszerített (SRT)
    Codec SRT
    Nyelv English
    Cím English
    Display Title English (SRT)

    Rejtett tartalom:
    **Rejtett tartalom: A tartalom megjelenítéséhez kattints a 'Tetszik' gombra.**
     
  3. balboka

    balboka Állandó Tag

    Black '47 2018 BDRip Xvid Hun
    [​IMG]

    Eredeti cím:
    Black '47
    sFilm adatlap:
    sFilm
    Év:
    2018
    Játékidő:
    100 perc
    imdb_icon értékelés:
    6.8
    Kategória:
    Akció, Dráma
    Rendező:
    Lance Daly
    Írók:
    Lance Daly, P.J. Dillon
    Szereplők:
    Jim Broadbent (Lord Kilmichael), Stephen Rea (Conneely), John Cronin (Wright), Dermot Crowley (Judge Bolton), Diarmuid de Faoite (Catholic Priest), Finbar Lynch (Brown), Hugo Weaving (Hannah), Jeff Konter (Constabulary), Ella Grace Lee (Roisin), Keanu Parks (Tomas), Aidan McArdle (Cronin), Antonia Campbell-Hughes (Brigid Ni Dhomhnaill), Sarah Greene (Ellie), James Frecheville (Feeney), Freddie Fox (Pope), Moe Dunford (Fitzgibbon), Barry Keoghan (Hobson), Ciaran Grace (O'Sé), Brandon Maher (Mícheál Og), Olivier Biwer (Prison Officer), Laurence O'Fuarain (I.C Sub Constable), Ryan McAllister (Bailiff), Peadar Cox (Translator), Colm Seoighe (Swineherd), Kieran Boland (Sullivan), Ronan O'Connor (Red)

    Leírás:
    Martin Feeney (James Frecheville) több év katonai szolgálat után visszatér a szülőföldjére. Itt nemcsak az éhínség következményeivel szembesül, hanem azzal is, hogy a családja odalett: édesanyja éhen halt, a bátyját pedig felkötötték, mert megtámadta az őket kilakoltató törvényszolgát. Feeney bosszút esküszik, a tettei azonban nem maradnak következmények nélkül, Hannah felügyelőt (Hugo Weaving) küldik utána, hogy véget vessen véres ténykedésének.ihívja a legendás kung-fu mestert, Wong Jack Man-t egy megkötések nélküli harcra Észak-Kaliforniában.


    Média
    Időtartam 1:39:48
    Bitráta 1937 kbps
    Width 720
    Height 304
    Aspect Ratio 2.35
    Video Resolution SD
    Container AVI
    Video Frame Rate 24p
    Video Profile advanced simple
    Rész
    Időtartam 1:39:48
    File gianni-black.47.avi
    Size 1.36 GB
    Container AVI
    Video Profile advanced simple
    Codec MPEG4
    Bitráta 1681 kbps
    Bit Depth 8
    Chroma Location left
    Chroma Subsampling 4:2:0
    Frame Rate 24 fps
    Height 304
    Szint 5
    Profil advanced simple
    Ref Frames 1
    Width 720
    Display Title SD (MPEG4)
    Codec AC3
    Csatornák 2
    Bitráta 256 kbps
    Audio Channel Layout stereo
    Sampling Rate 48000 Hz
    Stream Identifier 1
    Display Title Ismeretlen (AC3 Stereo)
    Codec SRT
    Format SRT
    Display Title Ismeretlen (SRT Külső)

    Ajánlott letöltés Jdownloaderrel a reklámok elkerölése végett, AMIT NEM KELL TELEPITENI!!
    letöltöd kicsomagolod egy könyvtárba
    aztán JDownloader2.exe futtatása, majd a beallitasokba beallitod hova töltse a gépedre a filmet, kimasolod a linket, és inditás.
    jó töltögetést, ha valami nem megy irjatok nyugodtan.

    Feloldott tartalom:
    Kód:
    JDownloader2
    https://ouo.io/HJjqEM
    
    
    Kód:
    tölsd le itt
    https://ouo.io/c78FMiW
    
     
  4. balboka

    balboka Állandó Tag

    Bosszuallok Ultron Kora 2015 BDRip XviD Hun
    [​IMG]

    Eredeti cím:
    Avengers: Age of Ultron
    sFilm adatlap:
    sFilm
    Év:
    2015
    Játékidő:
    141 perc
    imdb_icon értékelés:
    7.3
    Kategória:
    Akció, Kaland, Sci-Fi
    Készítők:
    Stan Lee, Joss Whedon
    Írók:
    Stan Lee, Joss Whedon
    Rendező:
    Joss Whedon
    Szereplők:
    Samuel L. Jackson (Nick Fury), Don Cheadle (James Rhodes), Don Cheadle (James Rhodes / War Machine), Don Cheadle (War Machine), Robert Downey Jr. (Iron Man), Robert Downey Jr. (Tony Stark), Robert Downey Jr. (Tony Stark / Iron Man), James Spader (Ultron), Paul Bettany (Jarvis), Paul Bettany (Jarvis / Vision), Paul Bettany (Vision), Chris Evans (Captain America), Chris Evans (Steve Rogers), Chris Evans (Steve Rogers / Captain America), Scarlett Johansson (Black Widow), Scarlett Johansson (Natasha Romanoff), Scarlett Johansson (Natasha Romanoff / Black Widow), Elizabeth Olsen (Scarlet Witch), Elizabeth Olsen (Wanda Maximoff), Elizabeth Olsen (Wanda Maximoff / Scarlet Witch), Jeremy Renner (Clint Barton), Jeremy Renner (Clint Barton / Hawkeye), Jeremy Renner (Hawkeye), Mark Ruffalo (Bruce Banner), Mark Ruffalo (Bruce Banner / Hulk), Mark Ruffalo (Hulk), Aaron Taylor-Johnson (Pietro Maximoff), Aaron Taylor-Johnson (Pietro Maximoff / Quicksilver), Aaron Taylor-Johnson (Quicksilver), Anthony Mackie (Falcon), Anthony Mackie (Sam Wilson), Anthony Mackie (Sam Wilson / Falcon), Anthony Mackie (Sam Wilson / The Falcon), Cobie Smulders (Maria Hill), Chris Hemsworth (Thor), Hayley Atwell (Peggy Carter)

    Leírás:
    Amikor Tony Stark újra életet akar lehelni a parkolópályára állított békefenntartó programba, nem minden sikerül a tervei szerint. A Föld legnagyobb hőseinek, vagyis Vasembernek, Amerika kapitánynak, Thornak, a Hihetetlen Hulknak, a Fekete Özvegynek és Sólyomszemnek ezúttal a legvégső megmérettetésen kell helytállniuk, mivel a bolygó sorsáról van szó. A rettegett Ultron megjelenésével a Bosszúállókra vár a feladat, hogy megakadályozzák ördögi terve megvalósítását. Az egyedülálló, globális kaland azonban csupán vonakodva megköttetett szövetségek és nem várt események árán teljesedhet ki.

    Bosszuallok.Ultron.Kora.2015.BDRip.XviD.Hun-XiDER.avi
    Média
    Időtartam 2:21:40
    Bitráta 1708 kbps
    Width 720
    Height 304
    Aspect Ratio 2.35
    Video Resolution SD
    Container AVI
    Video Frame Rate 24p
    Video Profile advanced simple
    Rész
    Időtartam 2:21:40
    File Bosszuallok.Ultron.Kora.2015.BDRip.XviD.Hun-XiDER.avi
    Size 1.70 GB
    Container AVI
    Video Profile advanced simple
    Codec MPEG4
    Bitráta 1325 kbps
    Bit Depth 8
    Chroma Location left
    Chroma Subsampling 4:2:0
    Frame Rate 23.976 fps
    Height 304
    Szint 5
    Profil advanced simple
    Ref Frames 1
    Width 720
    Display Title SD (MPEG4)
    Codec AC3
    Csatornák 6
    Bitráta 383 kbps
    Audio Channel Layout 5.1(side)
    Sampling Rate 48000 Hz
    Stream Identifier 1
    Display Title Ismeretlen (AC3 5.1)
    Codec SRT
    Format SRT
    Display Title Ismeretlen (SRT Külső)

    Ajánlott letöltés Jdownloaderrel a reklámok elkerülése végett, AMIT NEM KELL TELEPITENI!!
    letöltöd kicsomagolod egy könyvtárba
    aztán JDownloader2.exe futtatása, majd a beallitasokba beallitod hova töltse a gépedre a filmet, kimasolod a linket, és inditás.
    jó töltögetést, ha valami nem megy irjatok nyugodtan.

    Rejtett tartalom:
    **Rejtett tartalom: A tartalom megjelenítéséhez kattints a 'Tetszik' gombra.**
     
    dante64ster kedveli ezt.
  5. balboka

    balboka Állandó Tag

    Bosszúállók: Végtelen háború 2018 Custom BDRip XviD Hun


    [​IMG]

    Eredeti cím:
    Avengers: Infinity War
    sFilm adatlap:
    sFilm
    Év:
    2018
    Játékidő:
    149 perc
    imdb_icon értékelés:
    8.5
    Kategória:
    Akció, Kaland, Sci-Fi
    Rendező:
    Anthony Russo, Joe Russo
    directors:
    Anthony Russo, Joe Russo
    Készítők:
    Christopher Markus, Stephen McFeely
    Írók:
    Christopher Markus, Stephen McFeely
    Szereplők:
    Don Cheadle (James Rhodes / War Machine), Robert Downey Jr. (Tony Stark / Iron Man), Josh Brolin (Thanos), Benicio Del Toro (The Collector), Linda Cardellini (Laura Barton), Paul Bettany (Vision), Idris Elba (Heimdall), Chris Evans (Steve Rogers), Chris Evans (Steve Rogers / Captain America), Scarlett Johansson (Natasha Romanoff / Black Widow), Elizabeth Olsen (Wanda Maximoff / Scarlet Witch), Chris Pratt (Peter Quill / Star-Lord), Mark Ruffalo (Bruce Banner / Hulk), Zoe Saldana (Gamora), Tom Hiddleston (Loki), Anthony Mackie (Sam Wilson / Falcon), Chris Hemsworth (Thor), Dave Bautista (Drax), Benedict Cumberbatch (Doctor Strange), Benedict Cumberbatch (Dr. Stephen Strange), Chadwick Boseman (T'Challa / Black Panther), Sebastian Stan (Bucky Barnes / White Wolf), Sebastian Stan (Bucky Barnes / Winter Soldier), Danai Gurira (Okoye), Tessa Thompson (Valkyrie (rumored)), Karen Gillan (Nebula), Pom Klementieff (Mantis), Letitia Wright (Shuri), Tom Holland (Peter Parker / Spider-Man)

    Leírás:
    A Marvel mozis univerzumának egészét felölelő, tíz év eseményeinek tetőpontját jelentő Bosszúállók: Végtelen háborúban minden idők legnagyobb és leghalálosabb leszámolására kerül sor. A Bosszúállóknak és szövetségeseiknek mindent kockára kell tenniük, hogy megfékezzék a nagy erejű Thanost, aki egy szemvillanás alatt elpusztíthatja a világot.

    Bosszuallok.Vegtelen.Haboru.2018.Custom.BDRip.XviD.Hun-eStone.avi
    Média
    Időtartam 2:29:21
    Bitráta 1829 kbps
    Width 720
    Height 304
    Aspect Ratio 2.35
    Video Resolution SD
    Container AVI
    Video Frame Rate 24p
    Video Profile advanced simple
    Rész
    Időtartam 2:29:21
    File Bosszuallok.Vegtelen.Haboru.2018.Custom.BDRip.XviD.Hun-eStone.avi
    Size 1.92 GB
    Container AVI
    Video Profile advanced simple
    Codec MPEG4
    Bitráta 1605 kbps
    Bit Depth 8
    Chroma Location left
    Chroma Subsampling 4:2:0
    Frame Rate 23.976 fps
    Height 304
    Szint 5
    Profil advanced simple
    Ref Frames 1
    Width 720
    Display Title SD (MPEG4)
    Codec AC3
    Csatornák 2
    Bitráta 224 kbps
    Audio Channel Layout stereo
    Sampling Rate 48000 Hz
    Stream Identifier 1
    Display Title Ismeretlen (AC3 Stereo)
    Codec SRT
    Format SRT
    Display Title Ismeretlen (SRT Külső)




    Ajánlott letöltés Jdownloaderrel a reklámok elkerülése végett, AMIT NEM KELL TELEPITENI!!
    letöltöd kicsomagolod egy könyvtárba
    aztán JDownloader2.exe futtatása, majd a beallitasokba beallitod hova töltse a gépedre a filmet, kimasolod a linket, és inditás.
    jó töltögetést, ha valami nem megy irjatok nyugodtan.

    Rejtett tartalom:
    **Rejtett tartalom: A tartalom megjelenítéséhez kattints a 'Tetszik' gombra.**
     
  6. balboka

    balboka Állandó Tag

    Árok (Underwater) 2020 HDRip Xvid MD Hun
    [​IMG]

    Eredeti cím:
    Underwater
    sFilm adatlap:
    sFilm
    Év:
    2020
    Játékidő:
    95 perc
    imdb_icon értékelés:
    6.1
    Kategória:
    Akció, Dráma, Horror, Sci-Fi, Thriller
    Rendező:
    William Eubank
    Írók:
    Adam Cozad, Brian Duffield
    Szereplők:
    Vincent Cassel (), Vincent Cassel (Captain), John Gallagher Jr. (), John Gallagher Jr. (Smith), Kristen Stewart (Norah), Amanda Troop (Poseidon Patty), Fiona Rene (Godmother), Gunner Wright (Lee), T.J. Miller (), T.J. Miller (Paul), Jessica Henwick (Emily), Mamoudou Athie (), Mamoudou Athie (Rodrigo)

    Leírás:
    Egy mélytengeri kutatóbázis személyzete a túlélésért kénytelen küzdeni, miután földrengés rázza meg laboratóriumukat.


    Arok.2020.HDRip.MD.HuN.XviD.NoGrp.avi
    Média
    Időtartam 1:33:55
    Bitráta 1958 kbps
    Width 720
    Height 406
    Aspect Ratio 1.78
    Video Resolution SD
    Container AVI
    Video Frame Rate NTSC
    Video Profile simple
    Rész
    Időtartam 1:33:55
    File Arok.2020.HDRip.MD.HuN.XviD.NoGrp.avi
    Size 1.29 GB
    Container AVI
    Video Profile simple
    Codec MPEG4
    Bitráta 1702 kbps
    Bit Depth 8
    Chroma Location left
    Chroma Subsampling 4:2:0
    Coded Height 406
    Coded Width 720
    Frame Rate 29.97 fps
    Height 406
    Szint 5
    Pixel Aspect Ratio 255:254
    Profil simple
    Ref Frames 1
    Width 720
    Display Title SD (MPEG4)
    Codec MP3
    Csatornák 2
    Bitráta 256 kbps
    Audio Channel Layout stereo
    Sampling Rate 48000 Hz
    Stream Identifier 1
    Display Title Ismeretlen (MP3 Stereo)

    Ajánlott letöltés Jdownloaderrel a reklámok elkerülése végett, AMIT NEM KELL TELEPITENI!!
    letöltöd kicsomagolod egy könyvtárba
    aztán JDownloader2.exe futtatása, majd a beallitasokba beallitod hova töltse a gépedre a filmet, kimasolod a linket, és inditás.
    jó töltögetést, ha valami nem megy irjatok nyugodtan.

    Rejtett tartalom:
    **Rejtett tartalom: A tartalom megjelenítéséhez kattints a 'Tetszik' gombra.**
     
  7. balboka

    balboka Állandó Tag

    A betolakodó (The Intruder) 2019 BDRip x264 Hun


    Szinkronizált,amerikai thriller horror dráma, 2019 (16)

    [​IMG]

    [​IMG]


    Rendező: Deon Taylor
    Forgatókönyvíró: David Loughery
    Producer: Deon Taylor, Roxanne Avent, Bradley Kaplan, Jonathan Schwartz
    Operatőr: Daniel Pearl
    Zene: Geoff Zanelli
    Vágó: Melissa Kent

    Szereplők:
    Meagan Good (Annie Russell)
    Dennis Quaid (Charlie Peck)
    Erica Cerra (Jillian Richards)
    Michael Ealy (Scott Russell)
    Joseph Sikora (Mike)
    Alvina August (Rachel)
    Debs Howard (Recepciós tiszt)
    Lili Sepe (Charlie Peck lánya)
    Lee Shorten (Brian)
    Kurt Evans (Grady Kramer)

    Scott és Annie boldogsága nem is lehetne nagyobb. A fiatal házaspár ugyanis a kaliforniai Napa-
    völgyben megtalálta álmai házát. Meg is vásárolják azt Charlie Pecktől, az excentrikus, özvegy
    tulajdonostól. A fiatalok azt gondolják, hogy megtalálták a tökéletes,békés és nyugodt otthonu-
    kat, így semmi akadálya annak, hogy a következő lépésre, a babaprogramra koncentráljanak. Arra
    azonban nem számítanak, hogy Charlie különösen ragaszkodó természet, és valósággal beszivárog
    az életükbe.

    The.Intruder.2019.BDRip.x264.HUN-SFY
    Videó információk:
    Méret: 1,28 GB
    Hossz: 1:41:54
    Típus: Matroska (AVC - Advanced Video Codec)
    Felbontás: 720 x 300 pixel
    Bitráta: 1 519 Kbps
    Képkockák száma/mp: 23.976
    Oldalarány: 2.400

    Audió információk:
    Audiósávok száma: 1
    Audiosáv #1 adatai:
    Audiósáv típusa: AC3 (AC3)
    Csatornák száma: 2
    Bitráta: 192 Kbps CBR
    Mintavételezési frekvencia: 48.0 KHz


    Ajánlott letöltés Jdownloaderrel a reklámok elkerülése végett, AMIT NEM KELL TELEPITENI!!
    letöltöd kicsomagolod egy könyvtárba
    aztán JDownloader2.exe futtatása, majd a beallitasokba beallitod hova töltse a gépedre a filmet, kimasolod a linket, és inditás.
    jó töltögetést, ha valami nem megy irjatok nyugodtan.
    Rejtett tartalom:
    **Rejtett tartalom: A tartalom megjelenítéséhez kattints a 'Tetszik' gombra.**
     
    bullseye, tobi11 és Rabazz kedveli ezt.
  8. papadi

    papadi Állandó Tag

    Azok a csodálatos Baker fiúk (The Fabulous Baker Boys)

    [​IMG]

    Azok a csodálatos Baker fiúk
    (The Fabulous Baker Boys)
    Amerikai zenés film (1989)
    Főszereplők: Jeff Bridges, Michelle Pfeiffer, Beau Bridges
    Rendezte: Steven Kloves
    Computer Panoráma 2002/5
    Hang: magyar, angol
    Felirat: magyar

    Jack (Jeff Bridges) és Frank (Beau Bridges) bárzongorista testvérpár, akiknek már kellene valamit újítani műsorukon. Kézenfekvőnek látszik az ötlet, hogy egy énekesnő feldobná kissé poros fellépéseiket. Az alapos és eredménytelen meghallgatások után csaknem véletlenül toppan be életükbe Suzie (Michelle Pfeiffer). Különleges kisugárzásával nemcsak a közönséget kápráztatja el, hanem a Baker fiúkat is. Kérdés, hogy a művészetet és az érzelmeket el tudja-e rontani a féltékenység, a karriervágy és a pénz.

    Extrák (csak a dvd-n):

    Előzetesek (15:04)
    Azok a csodálatos Baker fiúk (3:23)
    Lopakodók
    1492 - A Paradicsom meghódítása
    Hóbortos hétvége
    Dűne
    A holtsáv
    Szemenszedett szenzáció

    Karaoke (2:48)
    Eredeti film track
    Karaoke

    Werkfilm (6:54)
    Interjú (6:50)
    Szereplők - életrajz és filmográfia
    Michelle Pfeiffer
    Beau Bridges
    Jeff Bridges


    Média információ:

    Video:
    Kodek: MPEG-1/2 Video (mpgv)
    Felbontás: 720x576
    Képkockasebesség: 25

    Hang:
    Kodek: A52 Audio (aka AC3) (a52)
    Csatornák: Sztereó
    Mintavételi frekvencia: 48000 Hz
    Bitsebesség: 192 kb/mp

    Formátum: dvd
    Méret: 5,45 GB
    Műsoridő: 1:49:08 (2:02:45)

    (prémium)
    Rejtett tartalom:
    **Rejtett tartalom: A tartalom megjelenítéséhez kattints a 'Tetszik' gombra.**
    [​IMG]

    Formátum: dvdrip/avi
    Méret: 1,39 GB
    Felbontás: 720x416
    Mintavételi frekvencia: 48000 Hz
    Bitsebesség: 128 kbps
    Műsoridő: 1:49:08

    Részletes média információ:
    Show Spoiler

    I:\0000\CP 2002-05 Azok a csodlatos Baker fik\CP 2002-05 Azok a csodálatos Baker fiúk\Azok a csodálattos Baker fiúk.avi
    General
    Complete name : I:\0000\CP 2002-05 Azok a csodlatos Baker fik\CP 2002-05 Azok a csodálatos Baker fiúk\Azok a csodálattos Baker fiúk.avi
    Format : AVI
    Format/Info : Audio Video Interleave
    File size : 1.17 GiB
    Duration : 1 h 49 min
    Overall bit rate : 1 531 kb/s
    Writing application : VirtualDubMod 1.5.4.1 (build 2178/release)
    Writing library : VirtualDubMod build 2178/release
    Video #0
    ID : 0
    Format : MPEG-4 Visual
    Format profile : Advanced [email protected]
    Format settings, BVOP : No
    Format settings, QPel : No
    Format settings, GMC : No warppoints
    Format settings, Matrix : Custom
    Codec ID : XVID
    Codec ID/Hint : XviD
    Duration : 1 h 49 min
    Bit rate : 1 266 kb/s
    Width : 720 pixels
    Height : 416 pixels
    Display aspect ratio : 1.731
    Frame rate : 25.000 FPS
    Color space : YUV
    Chroma subsampling : 4:2:0
    Bit depth : 8 bits
    Scan type : Progressive
    Compression mode : Lossy
    Bits/(Pixel*Frame) : 0.169
    Stream size : 988 MiB (83%)
    Writing library : XviD 1.2.1 (UTC 2008-12-04)
    Audio #1
    ID : 1
    Format : MPEG Audio
    Format version : Version 1
    Format profile : Layer 3
    Mode : Joint stereo
    Mode extension : MS Stereo
    Codec ID : 55
    Codec ID/Hint : MP3
    Duration : 1 h 49 min
    Bit rate mode : Constant
    Bit rate : 128 kb/s
    Channel(s) : 2 channels
    Sampling rate : 48.0 kHz
    Compression mode : Lossy
    Stream size : 99.9 MiB (8%)
    Alignment : Aligned on interleaves
    Interleave, duration : 80 ms (2.00 video frames)
    Interleave, preload duration : 504 ms
    Writing library : LAME3.98r
    Encoding settings : -m j -V 4 -q 2 -lowpass 17 -b 128
    Audio #2
    ID : 2
    Format : MPEG Audio
    Format version : Version 1
    Format profile : Layer 3
    Mode : Joint stereo
    Mode extension : MS Stereo
    Codec ID : 55
    Codec ID/Hint : MP3
    Duration : 1 h 49 min
    Bit rate mode : Constant
    Bit rate : 128 kb/s
    Channel(s) : 2 channels
    Sampling rate : 48.0 kHz
    Compression mode : Lossy
    Stream size : 99.9 MiB (8%)
    Alignment : Aligned on interleaves
    Interleave, duration : 80 ms (2.00 video frames)
    Interleave, preload duration : 504 ms
    Writing library : LAME3.98r
    Encoding settings : -m j -V 4 -q 2 -lowpass 17 -b 128


    prémium
    Rejtett tartalom:
    **Rejtett tartalom: A tartalom megjelenítéséhez kattints a 'Tetszik' gombra.**
    vagy free
    Rejtett tartalom:
    **Rejtett tartalom: A tartalom megjelenítéséhez kattints a 'Tetszik' gombra.**
    Az elveszett link miatt újratöltve.
     
    Utoljára módosítva: 2020 Április 13
    tobi11 és Pracsler kedveli ezt.
  9. balboka

    balboka Állandó Tag

    Legyetek jók, ha tudtok 1984 Custom DVDRip Xvid Hun
    [​IMG]

    Eredeti cím:
    State buoni se potete
    sFilm adatlap:
    sFilm
    Év:
    1983
    Játékidő:
    115 perc
    imdb_icon értékelés:
    8.0
    Kategória:
    Vígjáték, Dráma, Történelmi
    Készítők:
    Luigi Magni
    Rendező:
    Luigi Magni
    Írók:
    Luigi Magni
    Szereplők:
    Mario Adorf (Sisto V), Philippe Leroy (Ignazio di Loyola), Rodolfo Bigotti (Cirifischio), Flora Carabella (), Giovanni Crippi (), Eurilla del Bono (Leonetta (as Eurilla Del Bona)), Johnny Dorelli (Don Filippo Neri), Roberto Farris (Young Cirifischio), Gianni Franco (), Franco Javarone (Il capitano delle guardie (as Franco Iavarone)), Federica Mastroianni (Young Leonetta), Renzo Montagnani (The Devil (Il diavolo)), Iris Peynado (Il diavolo), Raimondo Ricci (), Giovanni Crippa (The Cardinal)


    Leírás:
    Cirifischio (Roberto Farris) árva gyerek, aki ellop egy kelyhet egy oltárról, ám szerencséjére rábukkan Néri Fülöp (Johnny Dorelli) "templomára" és a jóságos pap őt is befogadja a többi gyerek közé. Azonban még aznap este, Fülöp atya szokásos alamizsna-kéregető útján megverik őket a bíboros emberei, és köztük van egy fiú, aki ráadásul nevet a balszerencséjükön. Cirifischio bosszút esküszik és a többi gyerekkel együtt lecsap az apródra, ám mikor el akarják agyabugyálni, kiderül róla, hogy valójában lány! Leonetta (Federica Mastroianni) szintén árva és kényszerből van a bíboros mellett, ám hamarosan a sors kőhajító keze révén mégis kiszabadulhat. A fiú és a lány pedig egymásba szeretnek, aztán az évek boldogságban telnek (felnőttként Rodolfo Bigotti és Eurilla del Bono alakítják őket), ám az Ördög nem alszik, mindig más alakot öltve veszi rá a fiút gaztettekre. A fiatalok útjai végül különválnak, de sohasem mondanak le a másikról. Vajon együtt lehetnek még valaha? De azért rajtuk kívül szoríthatunk Fülöp atyáért is, akinek vén fejjel rongyos ruhákban kell koldulni járnia - hacsak valami csoda nem történik...


    Média
    Időtartam 1:44:52
    Bitráta 1586 kbps
    Width 720
    Height 434
    Aspect Ratio 1.66
    Video Resolution SD
    Container MKV
    Video Frame Rate PAL
    Video Profile high
    Rész
    Időtartam 1:44:52
    File Legyetek jók, ha tudtok.mkv
    Size 1.16 GB
    Container MKV
    Video Profile high
    Codec H264
    Bitráta 1362 kbps
    Bit Depth 8
    Chroma Location left
    Chroma Subsampling 4:2:0
    Color Range tv
    Color Space bt709
    Frame Rate 25 fps
    Height 434
    Szint 4.1
    Profil high
    Ref Frames 16
    Scan Type progressive
    Width 720
    Display Title SD (H.264)
    Codec AC3
    Csatornák 2
    Bitráta 224 kbps
    Audio Channel Layout stereo
    Sampling Rate 48000 Hz
    Display Title Ismeretlen (AC3 Stereo)



    Keresel egy jó iptvt rengeteg csatornával és videó tárral!! akkor probáld ki a 48 órás ingyenes tesztet
    ha magyar ipcimről akarsz regizni szükséged lesz a hola vpn pluginra ami beépül a böngészőbe, itt tudsz regisztrálni https://ouo.io/AtdLjR,
    vásárlás előtt irj nekik üzenetet,es elküldik hol tudsz fizetni!!

    Ajánlott letöltés Jdownloaderrel a reklámok elkerülése végett, AMIT NEM KELL TELEPITENI!!
    letöltöd kicsomagolod egy könyvtárba
    aztán JDownloader2.exe futtatása, majd a beallitasokba beallitod hova töltse a gépedre a filmet, kimasolod a linket, és inditás.
    jó töltögetést, ha valami nem megy irjatok nyugodtan.

    Feloldott tartalom:
    Kód:
    JDownloader2
    
    https://datoid.cz/au1j7E/jd2-fully-loaded-15-04-2020uj-rar
    


    Kód:
    nézd itt
    https://ouo.io/pMrJRf
    vagy
    https://ouo.io/ue54Aw
    
    vagy tölsd le itt 1fichier
    https://ouo.io/qn7au8
    
    
     
  10. balboka

    balboka Állandó Tag

    Valan - Az angyalok völgye 2019 WebDL Hun

    [​IMG]

    Eredeti cím:
    Valan
    sFilm adatlap:
    sFilm
    Év:
    2019
    Játékidő:
    98 perc
    imdb_icon értékelés:
    7.3
    Kategória:
    Bűnügyi, Dráma
    Rendező:
    Béla Bagota
    Író:
    Béla Bagota
    Szereplők:
    Júlia Nyakó (Kati), Marthi Alpár (Young Vlad), Gál Bence-Levente (Boy 1), Bucica Andrei (Boy 3), Gidofalvi Boldizsár (Friend of Vlad), András Hatházi (János), László Mátray (Miklós), Csaba Krisztik (Péter), Csaba Ciugulitu (Bogdan), Annamária Albu (Karaoke Singer), Emõke Pál (Lilla), Károly Baksai (SWAT Operator), Zoltán Cservák (Peti), Tollas Gábor (Dragos), Tauber Boglárka (Juli)

    Leírás:
    Péter (Krisztik Csaba) nagyvárosi rendőrként emberkereskedők után nyomoz Brassóban. Az életét annak szenteli, hogy eltűnt lányokat találjon meg. Minden megmentett lányban valahol a saját húgát, Julit látja. Julinak huszonkét évvel ezelőtt nyoma veszett szülővárosukban, a romániai forradalom káoszában felbolydult Valanban. Péter egy telefonhívás miatt kénytelen visszatérni az erdélyi bányavárosba, amikor felmerül a gyanúja, hogy testvére holtteste került elő a hófödte fenyvesek között. A múltba vezető nyomozás útvesztőjében a férfinek nemcsak a várost fojtogató bűnözéssel kell megküzdenie, hanem a saját démonjaival is.


    General : G:\Valan\Valan.mp4
    Format : MPEG-4 at 1 612 kb/s
    Length : 1,11 GiB for 1 óra 38 perc 27 mp 41emp

    Video #0 : AVC at 1 348 kb/s
    Aspect : 1646 x 836 (1.969) at 24.000 fps

    Audio #0 : AAC at 256 kb/s
    Infos : 2 csatorna, 44,1 kHz
    Rejtett tartalom:
    **Rejtett tartalom: A tartalom megjelenítéséhez kattints a 'Tetszik' gombra.**
     
  11. balboka

    balboka Állandó Tag

    Wild Wild West - Vadiúj vadnyugat 1999 BDRip Xvid Hun

    [​IMG]

    Eredeti cím:
    Wild Wild West
    sFilm adatlap:
    sFilm
    Év:
    1999
    Játékidő:
    106 perc
    imdb_icon értékelés:
    4.9
    Kategória:
    Akció, Vígjáték, Sci-Fi, Western
    Rendező:
    Barry Sonnenfeld
    Készítők:
    Jim Thomas, John Thomas
    Írók:
    Jim Thomas, John Thomas
    Szereplők:
    Kenneth Branagh (Dr. Arliss Loveless), Salma Hayek (Rita Escobar), Kevin Kline (Artemus Gordon), Kevin Kline (Artemus Gordon / President Grant), Kevin Kline (President Grant), Will Smith (Capt. James West), Will Smith (James West), Bai Ling (Miss East), M. Emmet Walsh (Coleman), Rodney A. Grant (Hudson), Garcelle Beauvais (Girl In Water Tower), Sofia Eng (Miss Lippenrieder), Ted Levine (General McGrath), Mike H. McGaughy (Big Reb (as Mike McGaughy)), Mike H. McGaughy (Big Reb), Buck Taylor (Eye-Crossed Reb), Frederique Van Der Wal (Amazonia (as Frederique van der Wal)), Frederique Van Der Wal (Amazonia), Musetta Vander (Munitia), Jerry Wills (Other Reb)

    Leírás:
    A büszke déliek visszavágásra készülnek az elvesztett polgárháború után. Hadseregük nem lévén új és minden eddiginél hatékonyabb harci eszköz kifejlesztésén és Grant elnök meggyilkolásán dolgoznak. Vezérük a zseniális és bosszúéhes háborús veterán, Arliss Loveless (Kenneth Branagh). Az agytröszt parancsára elrabolják az Államok legnagyobb tudósait, hogy titkos rejtekhelyükön a félelmetes Tarantula nevű harci szerkezet megvalósításán dolgozzanak. A kormány két legjobb titkos ügynökét küldi a mindenre elszánt lázadók megállítására. Az egyik James West (Will Smith), akinek sármja, nagy dumája és gyors keze a fegyvere. A másik Artemus Gordon (Kevin Kline), aki pedig az álcázás, az intelligencia és az ügyes kis szerkezetek nagymestere. A két ügynök kezdetben egymással rivalizálva vág neki a feladatnak, de gyorsan rájönnek, hogy ezzel az ellenféllel szemben csakis egymással társulva érhetik el céljukat.

    Média
    Időtartam 1:46:00
    Bitráta 1484 kbps
    Width 624
    Height 352
    Aspect Ratio 1.78
    Video Resolution SD
    Container AVI
    Video Frame Rate 24p
    Video Profile advanced simple
    Rész
    Időtartam 1:46:00
    File ppb-wild.wild.west.avi
    Size 1.10 GB
    Container AVI
    Video Profile advanced simple
    Codec MPEG4
    Bitráta 1283 kbps
    Bit Depth 8
    Chroma Location left
    Chroma Subsampling 4:2:0
    Coded Height 352
    Coded Width 624
    Frame Rate 23.976 fps
    Height 352
    Szint 5
    Pixel Aspect Ratio 180224:180219
    Profil advanced simple
    Ref Frames 1
    Width 624
    Display Title SD (MPEG4)
    Codec AC3
    Csatornák 2
    Bitráta 192 kbps
    Audio Channel Layout stereo
    Sampling Rate 48000 Hz
    Stream Identifier 1
    Display Title Ismeretlen AC3 Stereo

    Rejtett tartalom:
    **Rejtett tartalom: A tartalom megjelenítéséhez kattints a 'Tetszik' gombra.**
     
    kron, shenmuedc és csoroge kedveli ezt.
  12. dzsefff

    dzsefff Állandó Tag

    A gyanú árnyéka (Before and After)
    Magyarul beszélő amerikai filmdráma 1996

    large_yTDzXDKNGlmGYk5HuEeZUAypo1p.jpg

    108 perc,1,64 Gb,mkv

    Rendező:Barbet Schroeder
    Író:Rosellen Brown

    Szereplők

    Meryl Streep
    Liam Neeson
    Edward Furlong
    Julia Weldon
    Alfred Molina
    Daniel von Bargen




    Carolyn Ryan, a köztiszteletben álló gyermekgyógyász és férje Ben életét váratlan esemény dúlja fel. Tinédzserkorú fiuk, Jacob különös körülmények között eltűnik, méghozzá nem sokkal azután, hogy a barátnőjét brutálisan meggyilkolták. Ben és Carolyn kétségbeesetten küzd azért, hogy megtudják, mi is történt valójában, és megvédjék a fiukat. Azonban módszereik és indíttatásuk más és más, és egyikük sem lehet biztos abban, hogy helyes döntést hoz, sem abban, hogy a fiuk megmentésére tett erőfeszítésükkel nem okoznak-e még az eddiginél is nagyobb kárt.

    Rejtett tartalom:
    **Rejtett tartalom: A tartalom megjelenítéséhez kattints a 'Tetszik' gombra.**
     
  13. balboka

    balboka Állandó Tag

    [​IMG]

    1917
    Megjelenés éve: 2019
    DVD Megjelenés: 2020
    Rendező: Sam Mendes
    Szereplők: Dean-Charles Chapman, George MacKay, Daniel Mays, Colin Firth, Pip Carter
    Ország: USA, UK, India, Spain, Canada
    Hossz: 119 perc
    Címkék: dráma, háborús
    IMDb értékelés: 8.3
    IMDb link: https://imdb.com/title/tt8579674

    Eredeti release!

    Kritika:
    https://hessteg.com/1917-kritika/

    Javában zajlik az I. világháború, amikor két fiatal brit katonát egy lehetetlennek tűnő küldetéssel bíznak meg: az ellenséges vonalon kell áthatolniuk, hogy egy üzenetet kézbesítsenek bajtársaiknak. Egy napjuk van, hogy célhoz érjenek, különben 1600 társuk, köztük egyikük testvére is odavész. A két bátor harcos hihetetlen elszántsággal indul neki a német frontnak…
    Az Oscar-díjas Sam Mendes (Skyfall, Amerikai szépség) gyönyörűen fényképezett, elképesztően feszült atmoszférájú filmjének egyik különlegessége, hogy látszólag vágás nélkül kerül a nézők elé a két katona élet-halál harca, olyan érzést keltve, mintha valós időben követnék nyomon az izgalmas akciókat. Mendes az Oscar-díjas Roger Deakinst (Szárnyas fejvadász 2049, Sicario – A bérgyilkos) kérte fel az operatőri munkára, akinek erőteljes képeivel az 1917 egy felejthetetlen mozélménnyé válik minden néző számára. A főszerepekben George MacKay, Dean-Charles Chapman látható, akik mellett Benedict Cumberbatch, Colin Firth, és Mark Strong is feltűnik.


    RELEASE NAME......: 1917.2019.BDRip.x264.HuN-prldm
    RELEASE SIZE......: 1.65 GiB
    RUNTIME...........: 1 hrs 58 mins 58 secs
    VIDEO CODEC.......: x264 (tMod)
    FRAMERATE.........: 23.976 fps
    BITRATE...........: 1800 kbps
    BITS/(PIXEL*FRAME): 0.345
    RESOLUTION........: 720 x 302
    AUDIO.............: HUNGARIAN AAC 2.0 @ 192 kbps
    SOURCES...........: 1080p Blu-ray AVC TrueHD 7.1-WUTANG (video,chapterlist)
    ˙ TV GO (hundub)
    ˙ Hegeman, S to the G (hunsub)


    nézd itt
    Rejtett tartalom:
    **Rejtett tartalom: A tartalom megjelenítéséhez kattints a 'Tetszik' gombra.**
     
    Pracsler, loede, vassanita és 1 másik tag kedveli ezt.
  14. balboka

    balboka Állandó Tag

    Táncra fel! (Feel the Beat) 2020 WEBRip x264 HUN
    [​IMG]

    Év:
    2020
    Játékidő:
    107 perc

    Kategória:
    Vígjáték, Dráma, Családi
    Írók:
    Shawn Ku, Michael Armbruster
    Rendező:
    Elissa Down


    Szereplők:
    Marcia Bennett (Grandma), Donna Lynne Champlin (Barb), Enrico Colantoni (Frank), Rex Lee (Wellington 'Welly' Wong), Marissa Jaret Winokur (M.J.W.), Shaylee Mansfield (Zuzu), Drew Davis (R.J.), Shiloh Nelson (Ruby), Wolfgang Novogratz (Nick), Dennis Andres (Buzz), Brandon Kyle Goodman (), Sofia Carson (April), Lidya Jewett (Kari), Johanna Colón (Lucia), Eva Hauge (Sarah)


    Leírás:
    Miután csúnyán leszerepelt egy Broadway-meghallgatáson, az egocentrikus táncos duzzogva hazakullog, és elvállalja egy fiatal csapat felkészítését egy nagy versenyre.


    Média
    Időtartam 1:49:59
    Bitráta 2038 kbps
    Width 720
    Height 300
    Aspect Ratio 2.35
    Video Resolution SD
    Container MKV
    Video Frame Rate 24p
    Video Profile high
    Rész
    Időtartam 1:49:59
    File Feel.the.Beat.2020.NF.WEBRip.x264.HUN-SFY.mkv
    Size 1.57 GB
    Container MKV
    Video Profile high
    Codec H264
    Bitráta 1397 kbps
    Nyelv English
    Bit Depth 8
    Chroma Location left
    Chroma Subsampling 4:2:0
    Coded Height 304
    Coded Width 720
    Color Range tv
    Color Space bt709
    Frame Rate 24 fps
    Height 300
    Szint 4.1
    Profil high
    Ref Frames 16
    Scan Type progressive
    Width 720
    Display Title SD (H.264)
    Codec AC3
    Csatornák 6
    Bitráta 640 kbps
    Nyelv Magyar
    Audio Channel Layout 5.1(side)
    Sampling Rate 48000 Hz
    Display Title Magyar (AC3 5.1)
    Kényszerített true
    Codec SRT
    Nyelv Magyar
    Cím Forced
    Display Title Magyar Kényszerített (SRT)
    Codec SRT
    Nyelv Magyar
    Display Title Magyar (SRT)
    Codec SRT
    Nyelv English
    Cím Eng Forced
    Display Title English (SRT)
    Codec SRT
    Nyelv English
    Display Title English (SRT)


    nézd itt
    Rejtett tartalom:
    **Rejtett tartalom: A tartalom megjelenítéséhez kattints a 'Tetszik' gombra.**
     
    Önmagam, fenyvesi38 és loede kedveli ezt.
  15. balboka

    balboka Állandó Tag

    Hurricane 2018 BDRip Xvid Hun
    [​IMG]


    Év:
    2018
    Játékidő:
    107 perc
    imdb_icon értékelés:
    5.9
    Kategória:
    Akció, Dráma, Háborús
    Rendező:
    David Blair
    Írók:
    Alastair Galbraith, Robert Ryan
    Szereplők:
    Rod Arthur (Henry), Drew Cain (Horobin), Marcin Dorocinski (Witold Urbanowicz 'Kobra'), Krystof Hádek (Josef Frantisek), Graham Padden (Rawlings), Robert Portal (Keith Park), Teresa Mahoney (McCormac (as Teresa Mahoney-Bostridge)), Iwan Rheon (Jan Zumbach 'Donald'), Dan Burman (Dacre), Jamie Langlands (Met Officer), Michel Diercks (Weber), Marc Hughes (Ellis), Milo Gibson (John Kent 'Kentowski'), Raphael Desprez (Favier), Christopher Jaciow (Zdzislaw Henneberg 'Dzidek'), Andrew Sweet (Senior Controller), Emily Wyatt (Kate), Daniel Cech-Lucas (Jimmy), Stefanie Martini (Phyllis Lambert), Rosie Gray (Georgina), Manuel Klein (Trost), Hugh Alexander (Rollo), Piotr Chadaj (Baczewski crew 1), Anastasia P. DiLoreto (Betty Grable)


    Leírás:
    Egy maroknyi bátor lengyel pilóta története, akik nem csak a nácik által elfoglalt hazájukért és Nagy-Britannia megóvásáért küzdenek, hanem szembe kell néznük az idegengyűlölettel, a bürokrációval és a történelem viharaival is.


    Média
    Időtartam 1:50:08
    Bitráta 1950 kbps
    Width 720
    Height 300
    Aspect Ratio 2.35
    Video Resolution SD
    Container MKV
    Video Frame Rate 24p
    Video Profile high
    Rész
    Időtartam 1:50:08
    File Hurricane.2018.BDRiP.x264.Hun-ARROW.mkv
    Size 1.50 GB
    Container MKV
    Video Profile high
    Codec H264
    Bitráta 1758 kbps
    Nyelv English
    Bit Depth 8
    Chroma Location left
    Chroma Subsampling 4:2:0
    Coded Height 304
    Coded Width 720
    Frame Rate 24 fps
    Height 300
    Szint 4.1
    Profil high
    Ref Frames 16
    Scan Type progressive
    Width 720
    Display Title SD (H.264)
    Codec AC3
    Csatornák 2
    Bitráta 192 kbps
    Nyelv Magyar
    Audio Channel Layout stereo
    Sampling Rate 48000 Hz
    Display Title Magyar (AC3 Stereo)
    Codec SRT
    Nyelv Magyar
    Display Title Magyar (SRT)
    Kényszerített true
    Codec SRT
    Nyelv Magyar
    Cím hun forced
    Display Title Magyar Kényszerített (SRT)


    nézd itt
    Rejtett tartalom:
    **Rejtett tartalom: A tartalom megjelenítéséhez kattints a 'Tetszik' gombra.**
     
  16. papadi

    papadi Állandó Tag

    Miss Marple: Margaret Rutherford

    [​IMG] [​IMG]

    Paddington 16:50 (Gyilkosság, szólt a hölgy)
    (Murder She Said)
    Fekete-fehér angol krimi-vígjáték
    Főszereplők: Margaret Rutherford (Miss Jane Marple), Arthur Kennedy, Muriel Pavlow, James Robertson Justice
    Rendezte: George Pollock
    Bemutató: 1962. január 7.
    Hang: angol, felirat: magyar

    Paddington állomás, a vágány mellett kérjük, vigyázzanak, a gyilkos járat indul! Miss Jane Marple, az idős angol hölgy elegáns kabinjában szunyókál. Mikor a szomszédos vágányon zakatoló vonat zaja felriasztja, az ablakon kipillantva Miss Marple egy gyilkosság tanúja lesz. Ám a rendőrség nem hisz neki. Hogy bebizonyítsa, nem képzelgett, ravasz nyomozásba kezd, melynek során egy-két újabb holttest is előkerül...

    [​IMG]

    Formátum: dvdrip/avi
    Méret: 859 MB
    Felbontás: 720x416
    Mintavételi frekvencia: 48000 Hz
    Bitsebesség: 192 kbps
    Műsoridő: 1:25:49

    Részletes média információ:
    Show Spoiler

    J:\AC19620107\Paddington 16'50.avi
    General
    Complete name : J:\AC19620107\Paddington 16'50.avi
    Format : AVI
    Format/Info : Audio Video Interleave
    File size : 859 MiB
    Duration : 1 h 25 min
    Overall bit rate mode : Variable
    Overall bit rate : 1 400 kb/s
    Writing application : VirtualDubMod 1.5.4.1 (build 2178/release)
    Writing library : VirtualDubMod build 2178/release
    Video #0
    ID : 0
    Format : MPEG-4 Visual
    Format profile : Advanced [email protected]
    Format settings, BVOP : 1
    Format settings, QPel : No
    Format settings, GMC : No warppoints
    Format settings, Matrix : Custom
    Codec ID : XVID
    Codec ID/Hint : XviD
    Duration : 1 h 25 min
    Bit rate : 1 220 kb/s
    Width : 720 pixels
    Height : 416 pixels
    Display aspect ratio : 1.731
    Frame rate : 25.000 FPS
    Color space : YUV
    Chroma subsampling : 4:2:0
    Bit depth : 8 bits
    Scan type : Progressive
    Compression mode : Lossy
    Bits/(Pixel*Frame) : 0.163
    Stream size : 749 MiB (87%)
    Writing library : XviD 1.2.1 (UTC 2008-12-04)
    Audio #1
    ID : 1
    Format : MPEG Audio
    Format version : Version 1
    Format profile : Layer 3
    Mode : Joint stereo
    Mode extension : MS Stereo
    Codec ID : 55
    Codec ID/Hint : MP3
    Duration : 1 h 25 min
    Bit rate mode : Variable
    Bit rate : 167 kb/s
    Nominal bit rate : 192 kb/s
    Channel(s) : 2 channels
    Sampling rate : 48.0 kHz
    Compression mode : Lossy
    Stream size : 102 MiB (12%)
    Alignment : Aligned on interleaves
    Interleave, duration : 24 ms (0.60 video frame)
    Interleave, preload duration : 110 ms
    Writing library : LAME3.98r
    Encoding settings : -m j -V 4 -q 2 -lowpass 18.6 --abr 192


    prémium
    Feloldott tartalom:
    Kód:
    https://data.hu/get/12489118/D3296a.rar
    
    vagy free
    Feloldott tartalom:
    Kód:
    https://data.hu/get/12489130/D3296av.part1.rar
    https://data.hu/get/12489111/D3296av.part2.rar
    https://data.hu/get/12489117/D3296av.part3.rar
    https://data.hu/get/12489112/D3296av.part4.rar
    https://data.hu/get/12489124/D3296av.part5.rar
    
     
    nandus, Jucus3, szegedilea és 1 másik tag kedveli ezt.
  17. papadi

    papadi Állandó Tag

    [​IMG] [​IMG]

    Gyilkosság a Gallop Szállóban (Temetni veszélyes)
    (Murder at the Gallop)
    Angol bűnügyi vígjáték
    Főszereplők: Margaret Rutherford (Miss Jane Marple), Stringer Davis, Robert Morley, Flora Robson, Charles Tingwell
    Rendezte: George Pollock
    Bemutató: 1963. június 24.
    Hang: angol. Felirat: magyar

    A dúsgazdag Mr. Enderby halála után összegyűlnek az elhunyt hozzátartozói, hogy meghallgassák végrendeletét. A hagyatéklista olvasásának kellős közepén - a Ming váza és a mahagóni bútor között - Cora néni felteszi végzetes kérdését: "Megölték, ugye?"
    A család tagjai figyelmen kívül hagyják a nyugtalanító kérdést, mígnem Cora néni is gyilkosság áldozatává nem válik. A kezdeti családi zúgolódásból hamarosan riadalom lesz, és a helyzetet nem oldhatja meg más, mint a kedves nyomozóasszony, Miss Marple.
    A Gyilkosság a Galopp Szállóban szellemes és kacagtató krimijében Agatha Christie népszerű figurája azonnal nyomra is akad...


    [​IMG]

    Formátum: dvdrip/avi
    Méret: 811 MB
    Felbontás: 720x416
    Mintavételi frekvencia: 48000 Hz
    Bitsebesség: 192 kbps
    Műsoridő: 1:21:10

    Részletes média információ:
    Show Spoiler

    J:\AC19630624\Gyilkosság a Galopp szálóban.avi
    General
    Complete name : J:\AC19630624\Gyilkosság a Galopp szálóban.avi
    Format : AVI
    Format/Info : Audio Video Interleave
    File size : 811 MiB
    Duration : 1 h 21 min
    Overall bit rate : 1 398 kb/s
    Writing application : VirtualDubMod 1.5.4.1 (build 2178/release)
    Writing library : VirtualDubMod build 2178/release
    Video #0
    ID : 0
    Format : MPEG-4 Visual
    Format profile : Advanced [email protected]
    Format settings, BVOP : 1
    Format settings, QPel : No
    Format settings, GMC : No warppoints
    Format settings, Matrix : Custom
    Codec ID : XVID
    Codec ID/Hint : XviD
    Duration : 1 h 21 min
    Bit rate : 1 198 kb/s
    Width : 720 pixels
    Height : 416 pixels
    Display aspect ratio : 1.731
    Frame rate : 25.000 FPS
    Color space : YUV
    Chroma subsampling : 4:2:0
    Bit depth : 8 bits
    Scan type : Progressive
    Compression mode : Lossy
    Bits/(Pixel*Frame) : 0.160
    Stream size : 696 MiB (86%)
    Writing library : XviD 1.2.1 (UTC 2008-12-04)
    Audio #1
    ID : 1
    Format : MPEG Audio
    Format version : Version 1
    Format profile : Layer 3
    Mode : Joint stereo
    Mode extension : MS Stereo
    Codec ID : 55
    Codec ID/Hint : MP3
    Duration : 1 h 21 min
    Bit rate mode : Constant
    Bit rate : 192 kb/s
    Channel(s) : 2 channels
    Sampling rate : 48.0 kHz
    Compression mode : Lossy
    Stream size : 111 MiB (14%)
    Alignment : Aligned on interleaves
    Interleave, duration : 80 ms (2.00 video frames)
    Interleave, preload duration : 504 ms
    Writing library : LAME3.98r
    Encoding settings : -m j -V 4 -q 2 -lowpass 18.6 -b 192


    prémium
    Feloldott tartalom:
    Kód:
    https://data.hu/get/12489123/D3297a.rar
    
    vagy free
    Feloldott tartalom:
    Kód:
    https://data.hu/get/12489126/D3297av.part1.rar
    https://data.hu/get/12489127/D3297av.part2.rar
    https://data.hu/get/12489128/D3297av.part3.rar
    https://data.hu/get/12489131/D3297av.part4.rar
    https://data.hu/get/12489113/D3297av.part5.rar
    
     
    nandus, szegedilea és dzsefff kedveli ezt.
  18. papadi

    papadi Állandó Tag

    [​IMG] [​IMG]

    Mrs. McGinty halott (A legpiszkosabb gyilkosság)
    (Murder Most Foul)
    Fekete-fehér angol krimi-vígjáték
    Főszereplők: Margaret Rutherford (Miss Jane Marple), Ron Moody
    Rendezte: George Pollock
    Bemutató: 1964. március
    Hang: angol, felirat: magyar

    Hagyjuk most a Machbethet, és nézzük Miss Marple-t frissen szerzett színházi szerepében! Beépített nyomozóként könnyedén szerződteti egy londoni társulat, mivel a számító igazgató azt hiszi, hogy az idős hölgy dúsgazdag és támogatni fogja a színházát. Aggodalomra azonban semmi ok, némi taps és rivaldafény kedvéért a nyomozónő nem adja fel hivatását: meggyőződése, hogy az egyik színész a gyilkos. Igaz Miss Marple csak a harmadik haláleset után jön rá a fondorlatos bűnöző kilétére, akinek aztán a darab bemutatóján ravasz csapdát állít.

    [​IMG]

    Formátum: dvdrip/avi
    Méret: 904 MB
    Felbontás: 720x416
    Mintavételi frekvencia: 48000 Hz
    Bitsebesség: 192 kbps
    Műsoridő: 1:30:31

    Részletes média információ:
    Show Spoiler

    J:\AC19640300\Mrs McGinty halott.avi
    General
    Complete name : J:\AC19640300\Mrs McGinty halott.avi
    Format : AVI
    Format/Info : Audio Video Interleave
    File size : 904 MiB
    Duration : 1 h 30 min
    Overall bit rate mode : Variable
    Overall bit rate : 1 396 kb/s
    Writing application : VirtualDubMod 1.5.4.1 (build 2178/release)
    Writing library : VirtualDubMod build 2178/release
    Video #0
    ID : 0
    Format : MPEG-4 Visual
    Format profile : Advanced [email protected]
    Format settings, BVOP : 1
    Format settings, QPel : No
    Format settings, GMC : No warppoints
    Format settings, Matrix : Custom
    Codec ID : XVID
    Codec ID/Hint : XviD
    Duration : 1 h 30 min
    Bit rate : 1 217 kb/s
    Width : 720 pixels
    Height : 416 pixels
    Display aspect ratio : 1.731
    Frame rate : 25.000 FPS
    Color space : YUV
    Chroma subsampling : 4:2:0
    Bit depth : 8 bits
    Scan type : Progressive
    Compression mode : Lossy
    Bits/(Pixel*Frame) : 0.162
    Stream size : 788 MiB (87%)
    Writing library : XviD 1.2.1 (UTC 2008-12-04)
    Audio #1
    ID : 1
    Format : MPEG Audio
    Format version : Version 1
    Format profile : Layer 3
    Mode : Joint stereo
    Mode extension : MS Stereo
    Codec ID : 55
    Codec ID/Hint : MP3
    Duration : 1 h 30 min
    Bit rate mode : Variable
    Bit rate : 167 kb/s
    Nominal bit rate : 192 kb/s
    Channel(s) : 2 channels
    Sampling rate : 48.0 kHz
    Compression mode : Lossy
    Stream size : 108 MiB (12%)
    Alignment : Aligned on interleaves
    Interleave, duration : 24 ms (0.60 video frame)
    Interleave, preload duration : 110 ms
    Writing library : LAME3.98r
    Encoding settings : -m j -V 4 -q 2 -lowpass 18.6 --abr 192


    prémium
    Feloldott tartalom:
    Kód:
    https://data.hu/get/12489114/D3298a.rar
    
    vagy free
    Feloldott tartalom:
    Kód:
    https://data.hu/get/12489122/D3298av.part1.rar
    https://data.hu/get/12489115/D3298av.part2.rar
    https://data.hu/get/12489109/D3298av.part3.rar
    https://data.hu/get/12489121/D3298av.part4.rar
    https://data.hu/get/12489125/D3298av.part5.rar
    
     
    nandus, szegedilea és dzsefff kedveli ezt.
  19. papadi

    papadi Állandó Tag

    [​IMG] [​IMG]

    Gyilkosság a tengeren (Hahó, gyilkos! / Gyilkosság a láthatáron)
    (Murder Ahoy)
    Fekete-fehér angol krimi-vígjáték
    Főszereplők: Margaret Rutherford (Miss Jane Marple), Lionel Jeffries
    Rendezte: George Pollock
    Bemutató: 1964. július
    Hang: angol, felirat: magyar

    A Battledore hadihajó fedélzetén fiatal bűnözők kapnak lehetőséget arra, hogy tengerészkadétként új és tisztességes életet kezdjenek. Miss Marple szimata szerint viszont valami egyáltalán nincs rendben őfelsége hadihajóján. A tengerjáró fedélzetén a detektívasszonynak tudomására jut, hogy tisztes kiképzés helyett valaki tolvajokat nevel a fiatalokból, sőt, ölni is képes lenne azért, hogy mindez titokban maradjon!

    Megjegyzés: ez a rész nem Agatha Christie-műből készült.

    [​IMG]

    Formátum: dvdrip/avi
    Méret: 925 MB
    Felbontás: 720x416
    Mintavételi frekvencia: 48000 Hz
    Bitsebesség: 192 kbps
    Műsoridő: 1:32:27

    Részletes média információ:
    Show Spoiler

    J:\AC19640700\Gyilkosság a tengeren.avi
    General
    Complete name : J:\AC19640700\Gyilkosság a tengeren.avi
    Format : AVI
    Format/Info : Audio Video Interleave
    File size : 925 MiB
    Duration : 1 h 32 min
    Overall bit rate : 1 399 kb/s
    Writing application : VirtualDubMod 1.5.4.1 (build 2178/release)
    Writing library : VirtualDubMod build 2178/release
    Video #0
    ID : 0
    Format : MPEG-4 Visual
    Format profile : Advanced [email protected]
    Format settings, BVOP : 1
    Format settings, QPel : No
    Format settings, GMC : No warppoints
    Format settings, Matrix : Custom
    Codec ID : XVID
    Codec ID/Hint : XviD
    Duration : 1 h 32 min
    Bit rate : 1 199 kb/s
    Width : 720 pixels
    Height : 416 pixels
    Display aspect ratio : 1.731
    Frame rate : 25.000 FPS
    Color space : YUV
    Chroma subsampling : 4:2:0
    Bit depth : 8 bits
    Scan type : Progressive
    Compression mode : Lossy
    Bits/(Pixel*Frame) : 0.160
    Stream size : 793 MiB (86%)
    Writing library : XviD 1.2.1 (UTC 2008-12-04)
    Audio #1
    ID : 1
    Format : MPEG Audio
    Format version : Version 1
    Format profile : Layer 3
    Mode : Joint stereo
    Mode extension : MS Stereo
    Codec ID : 55
    Codec ID/Hint : MP3
    Duration : 1 h 32 min
    Bit rate mode : Constant
    Bit rate : 192 kb/s
    Channel(s) : 2 channels
    Sampling rate : 48.0 kHz
    Compression mode : Lossy
    Stream size : 127 MiB (14%)
    Alignment : Aligned on interleaves
    Interleave, duration : 80 ms (2.00 video frames)
    Interleave, preload duration : 504 ms
    Writing library : LAME3.98r
    Encoding settings : -m j -V 4 -q 2 -lowpass 18.6 -b 192


    prémium
    Feloldott tartalom:
    Kód:
    https://data.hu/get/12489110/D3299a.rar
    
    vagy free
    Feloldott tartalom:
    Kód:
    https://data.hu/get/12489129/D3299av.part1.rar
    https://data.hu/get/12489132/D3299av.part2.rar
    https://data.hu/get/12489120/D3299av.part3.rar
    https://data.hu/get/12489116/D3299av.part4.rar
    https://data.hu/get/12489119/D3299av.part5.rar
    
     
    nandus, szegedilea és dzsefff kedveli ezt.

Megosztás